Torrent Info

Hidden Wars of Desert Storm (2000)

Log in to Check Peer Data
Seeds36 Seeds Leechers2 Leechers
821.75 MB
Report Abuse/Infringement

--this is my own dvd rip of this great documentary--SNACH--

Hidden Wars of Desert Storm (2000)


Program Info
August 2, 1990: Saddam Hussein's troops invade Kuwait
Was this invasion a surprise? Were all peaceful diplomatic means utilized?
Was there any real threat to Saudi Arabia? Who does the Iraqi embargo hurt?
What is Gulf War Syndrome?

The result of a two-year investegation, HIDDEN WARS OF DESERT STORM brings
answers to all of these questions, based on never-before-seen documents and
interviews with General Norman Schwarzkopf, former U.S. Attorney General
Ramsey Clark, former UNSCOM team-leader Scott Ritter and many others.

U.S./2000/Not Rated/Color/60 Minutes/English

A documentary by Audrey Brohy & Gerard Ungerman
Narrated by John Hurt

"...an uncommonly sober, well-researched film"-The New York Times
"Consistently persuasive...well worth seeing"-Christian Science Monitor
"...a documentary not to be missed for any reason"-L'Éxpress

info@freewillprod.com hiddenwars.com


Video Info
Hidden.Wars.of.Desert.Storm.2000.DVDrip.xvid.mp3-snach.avi

Format                           : AVI
Format/Info                      : Audio Video Interleave
File size                        : 699 MiB
Duration                         : 1h 3mn
Overall bit rate                 : 1 531 Kbps
Movie name                       : HIDDEN_WARS_OF_DESERT_STORM.Title1.DVDRip
Writing application              : Lavf52.33.0
Original source form/Name        : HIDDEN_WARS_OF_DESERT_STORM

Video
ID                               : 0
Format                           : MPEG-4 Visual
Format profile                   : Simple@L3
Format settings, BVOP            : No
Format settings, QPel            : No
Format settings, GMC             : No warppoints
Format settings, Matrix          : Default (H.263)
Codec ID                         : XVID
Codec ID/Hint                    : XviD
Duration                         : 1h 3mn
Bit rate                         : 1 389 Kbps
Width                            : 544 pixels
Height                           : 414 pixels
Display aspect ratio             : 4/3
Frame rate                       : 29.970 fps
Resolution                       : 24 bits
Colorimetry                      : 4:2:0
Scan type                        : Progressive
Bits/(Pixel*Frame)               : 0.206
Stream size                      : 634 MiB (91%)
Writing library                  : XviD 1.2.1 (UTC 2008-12-04)

Audio
ID                               : 1
Format                           : MPEG Audio
Format version                   : Version 1
Format profile                   : Layer 3
Codec ID                         : 55
Codec ID/Hint                    : MP3
Duration                         : 1h 3mn
Bit rate mode                    : Constant
Bit rate                         : 128 Kbps
Channel(s)                       : 2 channels
Sampling rate                    : 48.0 KHz
Resolution                       : 16 bits
Stream size                      : 58.5 MiB (8%)
Alignment                        : Aligned on interleaves
Interleave, duration             : 24 ms (0.72 video frame)


Extras
Extended Interview with Doug Rokke (2000)

Leading expert on Depleted Uranium

Video Info
Hidden.Wars.of.Desert.Storm.Extra1.2000.DVDrip.xvid.mp3-snach.avi

Format                           : AVI
Format/Info                      : Audio Video Interleave
File size                        : 100 MiB
Duration                         : 15mn 45s
Overall bit rate                 : 890 Kbps
Movie name                       : HIDDEN_WARS_OF_DESERT_STORM.Title3.DVDRip
Writing application              : Lavf52.33.0
Original source form/Name        : HIDDEN_WARS_OF_DESERT_STORM

Video
ID                               : 0
Format                           : MPEG-4 Visual
Format profile                   : Simple@L3
Format settings, BVOP            : No
Format settings, QPel            : No
Format settings, GMC             : No warppoints
Format settings, Matrix          : Default (H.263)
Codec ID                         : XVID
Codec ID/Hint                    : XviD
Duration                         : 15mn 45s
Bit rate                         : 748 Kbps
Width                            : 448 pixels
Height                           : 320 pixels
Display aspect ratio             : 1.400
Frame rate                       : 29.970 fps
Resolution                       : 24 bits
Colorimetry                      : 4:2:0
Scan type                        : Progressive
Bits/(Pixel*Frame)               : 0.174
Stream size                      : 84.3 MiB (84%)
Writing library                  : XviD 1.2.1 (UTC 2008-12-04)

Audio
ID                               : 1
Format                           : MPEG Audio
Format version                   : Version 1
Format profile                   : Layer 3
Codec ID                         : 55
Codec ID/Hint                    : MP3
Duration                         : 15mn 45s
Bit rate mode                    : Constant
Bit rate                         : 128 Kbps
Channel(s)                       : 2 channels
Sampling rate                    : 48.0 KHz
Resolution                       : 16 bits
Stream size                      : 14.4 MiB (14%)
Alignment                        : Aligned on interleaves
Interleave, duration             : 24 ms (0.72 video frame)
Writing library                  : LAME3.98.2


Interview in Basra Hospital (2000)


Video Info
Hidden.Wars.of.Desert.Storm.Extra2.2000.DVDrip.xvid.mp3-snach.avi

Format                           : AVI
Format/Info                      : Audio Video Interleave
File size                        : 22.2 MiB
Duration                         : 3mn 29s
Overall bit rate                 : 888 Kbps
Movie name                       : HIDDEN_WARS_OF_DESERT_STORM.Title2.DVDRip
Writing application              : Lavf52.33.0
Original source form/Name        : HIDDEN_WARS_OF_DESERT_STORM

Video
ID                               : 0
Format                           : MPEG-4 Visual
Format profile                   : Simple@L3
Format settings, BVOP            : No
Format settings, QPel            : No
Format settings, GMC             : No warppoints
Format settings, Matrix          : Default (H.263)
Codec ID                         : XVID
Codec ID/Hint                    : XviD
Duration                         : 3mn 29s
Bit rate                         : 746 Kbps
Width                            : 448 pixels
Height                           : 320 pixels
Display aspect ratio             : 1.400
Frame rate                       : 29.970 fps
Resolution                       : 24 bits
Colorimetry                      : 4:2:0
Scan type                        : Progressive
Bits/(Pixel*Frame)               : 0.174
Stream size                      : 18.6 MiB (84%)
Writing library                  : XviD 1.2.1 (UTC 2008-12-04)

Audio
ID                               : 1
Format                           : MPEG Audio
Format version                   : Version 1
Format profile                   : Layer 3
Codec ID                         : 55
Codec ID/Hint                    : MP3
Duration                         : 3mn 29s
Bit rate mode                    : Constant
Bit rate                         : 128 Kbps
Channel(s)                       : 2 channels
Sampling rate                    : 48.0 KHz
Resolution                       : 16 bits
Stream size                      : 3.19 MiB (14%)
Alignment                        : Aligned on interleaves
Interleave, duration             : 24 ms (0.72 video frame)
Writing library                  : LAME3.98.2


Trackers
http://tracker.conspiracycentral.net/announce
http://www.h33t.com:3310/announce
http://inferno.demonoid.com:3417/announce
http://tracker.thepiratebay.org/announce
http://tracker.openbittorrent.com/announce

Visit & Join us at:
http://ConspiracyCentral.net




1 Comment


thanks
Aug 16 2009, 02:03 UTC
Your Comment


E-mail me about reactions to my comment.

(Please LOG IN first.)

Get E-mail notification about new comments. (LOG IN first)